Скачать порно через торрент Женская эротичность Les Femmes Erotiques UnionPeer.org бесплатно онлайн HD качество

Скачать новое порно 2015, 2014 новинки через торрент UnionPeer.org

Порно торрент бесплатно ЮнионПир.орг

Статистика раздачи
Размер:  1.75 GB   |    Зарегистрирован:  5 лет 1 месяц   |    .torrent скачан:  1108 раз   |   
Раздают:  1   Качают:  2  
   
загрузка...
 
Автор Сообщение

whitekollar

avatar whitekollar


Женская эротичность / Les Femmes Erotiques


Год выпуска: 1993
Страна: США
Жанр: Classic / Retro, Feature, Gonzo, Fetish, Oral, Lesbian, Straight, Toys, Hardcore, Big Tits
Продолжительность: 1:47:10
Язык: Английский
Перевод: отсутствует

Режиссер: Andrew Blake

Студия: Studio A Entertainment

В ролях: Julia Ann, P.J. Sparxx, Sunset Thomas, Raven, Kelly O'Dell, Deborah Wells, Dahlia Grey, Christine Tyler, Randy West, Peter North, Marc Wallice, Aaron Colt

Описание: The artistry of Andrew Blake, creator of Hidden Obsessions and Sensual Exposure, comes alive again with beautiful women and stunning locations, featuring 15 erotic scenes. Three gorgeous women, Julia, Dahlia and Raven use high-tech virtual reality equipment and mechanized sex-toys to indulge their deepest fantasies.

Качество: DVDRip-AVC
Формат: MKV
Видео кодек: h.264
Аудио кодек: AC3
Видео: 720x536 (4:3), 25 fps, MPEG4/ISO/AVC ~1946 kbps avg, 0.210 bit/pixel
Аудио: 48 kHz, AC3, 2 ch, ~384.00 kbps avg
E:\INTERNET\XXX\Les Femmes Erotiques (1993) XXX DVDRip\Les.Femmes.Erotiques\Les.Femmes.Erotiques.mkv
General
Unique ID : 295819701343020041578251395542139334838 (0xDE8CCD56237D05835F94544526BCF0B6)
Complete name : E:\INTERNET\XXX\Les Femmes Erotiques (1993) XXX DVDRip\Les.Femmes.Erotiques\Les.Femmes.Erotiques.mkv
Format : Matroska
Format version : Version 2
File size : 1.75 GiB
Duration : 1h 47mn
Overall bit rate : 2 340 Kbps
Writing application : HandBrake 0.9.5
Writing library : libmkv 0.6.4.1
Video #1
ID : 1
Format : AVC
Format/Info : Advanced Video Codec
Format profile : [email protected]
Format settings, CABAC : Yes
Format settings, ReFrames : 4 frames
Codec ID : V_MPEG4/ISO/AVC
Duration : 1h 47mn
Bit rate : 1 946 Kbps
Width : 720 pixels
Height : 536 pixels
Display aspect ratio : 4:3
Frame rate mode : Constant
Frame rate : 23.976 fps
Color space : YUV
Chroma subsampling : 4:2:0
Bit depth : 8 bits
Scan type : Progressive
Bits/(Pixel*Frame) : 0.210
Stream size : 1.43 GiB (82%)
Writing library : x264 core 112
Encoding settings : cabac=1 / ref=2 / deblock=1:0:0 / analyse=0x1:0x111 / me=hex / subme=6 / psy=1 / psy_rd=1.00:0.00 / mixed_ref=0 / me_range=16 / chroma_me=1 / trellis=0 / 8x8dct=0 / cqm=0 / deadzone=21,11 / fast_pskip=1 / chroma_qp_offset=-2 / threads=3 / sliced_threads=0 / nr=0 / decimate=1 / interlaced=0 / constrained_intra=0 / bframes=2 / b_pyramid=2 / b_adapt=1 / b_bias=0 / direct=1 / weightb=0 / open_gop=0 / weightp=2 / keyint=240 / keyint_min=23 / scenecut=40 / intra_refresh=0 / rc_lookahead=40 / rc=abr / mbtree=1 / bitrate=1946 / ratetol=1.0 / qcomp=0.60 / qpmin=3 / qpmax=51 / qpstep=4 / ip_ratio=1.40 / aq=1:1.00
Language : English
Default : Yes
Forced : No
Color primaries : BT.601 NTSC
Transfer characteristics : BT.709
Matrix coefficients : BT.601
Audio #2
ID : 2
Format : AC-3
Format/Info : Audio Coding 3
Mode extension : CM (complete main)
Format settings, Endianness : Big
Codec ID : A_AC3
Duration : 1h 47mn
Bit rate mode : Constant
Bit rate : 384 Kbps
Channel(s) : 2 channels
Channel positions : Front: L R
Sampling rate : 48.0 KHz
Bit depth : 16 bits
Compression mode : Lossy
Stream size : 294 MiB (16%)
Default : Yes
Forced : No


Трекер:  [ 21-Июн-2013 18:41 ]

  

Скачать .torrent

Размер .torrent файла 141 KB


Размер: 1.75 GB
Хэш (hash) релиза: 2e77f915d1312b6b18fde16d11c486c5b1b683c9

Еще никто не оставлял запись к записи скачать торрент Женская эротичность Les Femmes Erotiques . Будь первым!

!Обратная связь